Skip to main content

Reason For Leaving Live at Mr Roberts on 2004-03-26


Topics Live concert


intro, Ruka, 40 Oz To Freedom, Jose introduction and dedication, Two Joints, Pawnshop, drinking break, Wrong Way, tech interlude, Who's Got The Herb?, drinking break, Scarlet Begonias, What Happened?, outtro, intro, Kick Down, Santeria, drinking break, Jailhouse, Stepping Razor, drinking break, What I Got, Bad Fish, drinking break, Slow Ride - Thank You, outro, set 3 intro, Tsunami, Wetter, Freedom, I Got The Blues, Good Foot, outtro


Collection ReasonForLeaving
Band/Artist Reason For Leaving
Venue Mr Roberts
Location Madison WI

Source Neumann KM140's > Beyer MV100 > Sony SBM-1 (Doug Oade mod) > D100 > DAT @48KHz
Lineage DAT > D100 > S/Pdif > Audiomedia III > Protools > Audacity > xACT > FLAC
Taped by TAS
Transferred by TAS

Notes

Reason For Leaving presents Jose and Sumlimes
This is the first time RFL played Mr Roberts as Jose.

length expanded size cdr WAVE problems filename
0:48.71 8634236 --- -- ---xx rfl2004-03-26d1t01.flac
2:01.34 21424412 --- -- ---xx rfl2004-03-26d1t02.flac
3:29.25 36926444 --- -- ---xx rfl2004-03-26d1t03.flac
1:11.14 12557372 --- -- ---xx rfl2004-03-26d1t04.flac
3:35.46 38034236 --- -- ---xx rfl2004-03-26d1t05.flac
4:57.45 52496684 --- -- ---xx rfl2004-03-26d1t06.flac
1:18.15 13794524 --- -- ---xx rfl2004-03-26d1t07.flac
2:32.51 26932796 --- -- ---xx rfl2004-03-26d1t08.flac
3:06.70 32975084 --- -- ---xx rfl2004-03-26d1t09.flac
12:52.69 136343132 --- -- ---xx rfl2004-03-26d1t10.flac
1:16.72 13575788 --- -- ---xx rfl2004-03-26d1t11.flac
3:26.28 36404300 --- -- ---xx rfl2004-03-26d1t12.flac
3:38.48 38568140 --- -- ---xx rfl2004-03-26d1t13.flac
1:00.61 10727516 --- -- ---xx rfl2004-03-26d1t14.flac
0:52.19 9217532 --- -- ---xx rfl2004-03-26d1t15.flac
5:19.33 56349260 --- -- ---xx rfl2004-03-26d1t16.flac
3:16.17 34614428 --- -- ---xx rfl2004-03-26d1t17.flac
1:40.49 17755292 --- -- ---xx rfl2004-03-26d1t18.flac
4:15.08 45000860 --- -- ---xx rfl2004-03-26d2t01.flac
6:14.55 66103004 --- -- ---xx rfl2004-03-26d2t02.flac
1:43.70 18333884 --- -- ---xx rfl2004-03-26d2t03.flac
4:09.27 43987148 --- -- ---xx rfl2004-03-26d2t04.flac
5:36.14 59303372 --- -- ---xx rfl2004-03-26d2t05.flac
2:42.03 28583772 -b- -- ---xx rfl2004-03-26d2t06.flac
10:27.19 110647532 --- -- ---xx rfl2004-03-26d2t07.flac
0:50.60 8961164 --- -- ---xx rfl2004-03-26d2t08.flac
2:48.50 29752844 --- -- ---xx rfl2004-03-26d2t09.flac
5:28.70 58023884 --- -- ---xx rfl2004-03-26d2t10.flac
5:08.11 54357116 --- -- ---xx rfl2004-03-26d2t11.flac
6:46.59 71757212 --- -- ---xx rfl2004-03-26d2t12.flac
8:40.42 91826828 --- -- ---xx rfl2004-03-26d2t13.flac
12:49.25 135710444 --- -- ---xx rfl2004-03-26d2t14.flac
1:44.26 18406796 --- -- ---xx rfl2004-03-26d2t15.flac
135:52.31 1438087036 B (totals for 33 files, 0.5655 overall compression ratio)

Disc 1 Total: 56:26.17
Disc 2 Total: 79:26.14

Reviews

Reviewer: grateful kev - - August 28, 2007
Subject: real good Sublime cover band
This is real good stuff I miss Sublime But listen to this band
really puts a smile on my face the music brings back the vibe
A really good recording as well !!!!!!!
DOWNLOAD OPTIONS
Uploaded by
morst
on 1/23/2006
Views
2,370
Favorites
1
Reviews
1
PEOPLE ALSO FOUND
Reason For Leaving
by Reason For Leaving
3,080
0
2
( 2 reviews )
Source: Neumann KM140's > Beyer MV100 > Sony SBM-1 (Oade mod) > Sony TCD-D100 DAT @48KHz
Reason For Leaving
by Reason For Leaving
792
0
0
Source: KM140 Matrix > DAT
Reason For Leaving
by Reason For Leaving
13,719
0
1
( 1 reviews )
Source: Neumann KM140's (approx ORTF, FOB) > Beyer MV100 (+20dB gain) > Sony SBM-1 (Oade mod) > 48KHz S/Pdif > Sony PCM-M1
Reason For Leaving
by Reason For Leaving
744
1
0
Source: Neumann KM140's > Beyer MV100 > Sony D-10 ProII (Oade mod)
Reason For Leaving
by Reason For Leaving
1,924
1
0
Source: Neumann KM140 > MV100 > SBM > DAT
Reason For Leaving
by Reason For Leaving
235
1
0
Source: SBD + Audience Matrix
Reason For Leaving
by Reason For Leaving
457
1
0
Source: Matrix of SBD + Neumann KM 140's > DAT
Reason For Leaving
by Reason For Leaving
540
1
0
Source: KM140’s > MV100 > SBM-1 > D100
Reason For Leaving
by Reason For Leaving
1,902
1
1
( 1 reviews )
Source: Allen & Heath GL2200 Control Room outputs (RCA) > SBM-1 (Oade mod) > TCD-D100> DAT @48KHz + Neumann KM140's > Beyer MV100> TCD-D10ProII (Oade mod)
Reason For Leaving
by Reason For Leaving
608
1
0
Source: KM140's > MV100 > SBM-1 (Oade Mod) > M1 > DAT